Szukaj na blogu

Jak zapisać filmy z vod eska go.

Powstał kolejny darmowy serwis vod (www.eskago.pl/vod) z którego można w łatwy sposób pobrać filmy w bardzo dobrej jakości.
Wystarczy dodać do zakładek skrypt:
vodeska hls
Udać się na stronę z filmem - tam użyć zakładki do odnalezienia adresu strumienia z filmem.

Dalej postępujemy dokładnie tak samo jak w przypadku tvpuls; Aby zapisać strumień na dysku można skorzystać z ffmpeg, za pomocą polecenia:

ffmpeg -i ADRES -vcodec copy -acodec copy nazwa_pliku.mp4

na przykład:
ffmpeg -i "http://bazavod.eska.pl/playlist.php?i=238&t=hls&l=20" -vcodec copy -acodec copy syrena.mp4

albo można skorzystać z perlowego skryptu hls-fetch

Nie ma potrzeby wyłączania adblocka - skrypty działają zarówno z włączonym jak i z wyłączonym. Można adblocka wyłączyć aby dać zarobić autorom strony na reklamach wyświetlanych na stronie, filmy tak czy inaczej pobierać się będą bez reklam.

Aktualizacja: 2014.08.12 - Poprawione działanie w przypadku gdy nie ma w adresie strony numeru filmu.

81 komentarzy:

  1. Zobaczcie. Struktura jest bardzo prosta. Dla przykładu ten film:
    http://www.eskago.pl/vod/film/232/striptizerki_kontra_wilkolaki

    W tym linku jest ciąg cyfr "232" więc link do materiału będzie wyglądał tak:
    http://bazavod.eska.pl/playlist.php?i=232&t=hls

    Mam pytanie. Jak wyciągnąć link do filmu w HD? Dodam że wyciągnięty fragment do jakości HD ma taki prosty link:
    http://evod.cdn.smcloud.net/t/232_20_720_1900000_00001.ts
    gdzie 00001 to numer fragmentu. Próbowałem coś takiego:
    http://evod.cdn.smcloud.net/t/232_20_720.ts i http://evod.cdn.smcloud.net/t/232_20_720_1900000.ts lecz bez skutku.

    Pozdrawiam :)

    OdpowiedzUsuń
    Odpowiedzi
    1. Na końcu adresu jest jeszcze zazwyczaj &l=20 albo &l=30 ale poza tym to skrypt tak właśnie działa bierze numer i podstawia go do schematu adresu, no chyba że gdzieś w kodzie strony znajdzie inny adres.

      W kwestii wyboru jakości to ffmpeg informuje, że jakie masz do wyboru jakości. W przypadku tego adresu są 3 pod strumienie z obrazem

      Stream #0.0: Video: h264 (Main), yuv420p, 1280x720 [PAR 1:1 DAR 16:9],
      Stream #0.2: Video: h264 (Constrained Baseline), yuv420p, 852x480 [PAR 640:639 DAR 16:9],
      Stream #0.4: Video: h264 (Constrained Baseline), yuv420p, 640x360 [PAR 1:1 DAR 16:9],

      +jeszcze 2 audio do wyboru.

      Domyślnie ffmpeg pobierze main czyli 1280x720 dodatkowe parametry trzeba podać gdybyś chciał 480p albo 360p

      Usuń
    2. Skrypt nie pobiera wyswietla tylko okienko z wygenerowanym linkiem
      http://bazavod.eska.pl/playlist.php?i=LICZBA&t=hls

      http://bazavod.eska.pl/playlist.php?i=232&t=hls rozpoczyna pobieranie 533b nieznany plik.
      Przy podstawieniu innego video takze ropoczyna pobieranie nieznanego plikuo bardzo malej wadze.

      Usuń
    3. Ten mały plik to playlista zawierająca adresy strumieni z których składa się film trzeba użyć albo programu który je pobierze i poskleja z nich film albo odtwarzacza który nie będzie ich zapisywał tylko od razu wyświetli.

      Usuń
    4. Dzieki za odpowiedz. Jaki program do pobierania?

      Usuń
  2. Gdzie mogę pobrać ffmpeg na Windowsa?

    OdpowiedzUsuń
    Odpowiedzi
    1. Na przykład na stronie www.ffmpeg.org - są tam wersje pod wszystkie systemy.

      A poza tym podawałem już kiedyś linka na blogu do wersji ffmpeg którą nieco ulepszyłem i sam kompilowałem pod windows.
      Na górze strony jest teraz wyszukiwarka można sobie poszukać.

      Usuń
    2. Pamiętam tylko że nie ma już tego linku :(

      Usuń
  3. Nalegam aby dodac opcje dotacji (paypal) nawet na to symboliczne piwo! za tą cała robote

    OdpowiedzUsuń
    Odpowiedzi
    1. Popieram! :)

      Usuń
    2. Da sie pobierac z cda.pl ?

      np
      http://www.cda.pl/video/10621859/Ace-Ventura-Psi-detektyw-online-1994-Lektor-PL-HD

      Usuń
    3. Da się. Zainstaluj do Chrome Video Downloader professional:
      https://chrome.google.com/webstore/detail/video-downloader-professi/elicpjhcidhpjomhibiffojpinpmmpil

      Usuń
  4. Dlaczego po uzyciu tej skryptozakladni wyskakuje mi puste okienko bez linku?

    OdpowiedzUsuń
    Odpowiedzi
    1. wlsnie o to chodzi ze na kazdym , inne skryptozakladki mi dzialaja a ta nie , nawet adblocka wylaczylem, uzywam firefoxa.U was dziala normalnie? jesli tak to znaczy ze u mniejest cos nie tak i nie wiem co

      Usuń
    2. U mnie tez puste okienko ... nie zależnie jaki film

      Usuń
    3. Zastosowana metoda "wyprucia" linku z kodu strony nie zawsze się sprawdza, proponuję zastapić ją prościutką formułą opartą o wyrażenia regularne:

      var i=document.body.innerHTML;
      m=i.match(/\x22(http:\/\/bazavod.eska.pl.*)\x22/);

      pzdr

      Usuń
    4. A już wiem dlaczego niektórym nie dział a innym działa.

      Zależy jak się wejdzie na stronę z filmem normalnie np http://www.eskago.pl/vod/film/1921/crawl to działa bo ma w adresie numerek na podstawie którego generuje linka do strumienia.

      Ale jak się wejdzie na stronę z filmem poprzez jakieś polecane to nie wyświetla się w adresie numerek i nie ma jak wygenerować linka do strumienia - czyli chyba lepiej szukać tego strumienia w kodzie strony zaraz zamienię skrypt zgodnie z sugestią.

      Usuń
    5. Marku ten nowy skrypt dziala , ale ten stary nie dzialal mimo ze byl numerek w linku nawet na pulsie tez juz mi nie dziala wyskakuje puste okienko.Moze na pulsa tez daloby sie cos zmienic , byc moze to wina ich nowego VOD albo cos u mnie w przegladarce cos nie dziala poprawnie

      Usuń
  5. Mam takowy problem przy próbie pobrania filmu
    http://oi58.tinypic.com/2up8llh.jpg

    OdpowiedzUsuń
    Odpowiedzi
    1. Spróbuj zamiast -acodec copy dać -absf aac_adtstoasc

      Usuń
  6. co z player.pl? zmienili cos? czesc rzeczy (nowa) nie dziala... przykladowo 9 odcinek Oli w Trasie

    OdpowiedzUsuń
  7. Marku bardzo prosze o pomoc ze strona http://www.dziennikzachodni.pl/artykul/3549373,slaski-zlot-pojazdow-zabytkowych-wystartowal-zdjecia-wideo-trasa-przejazdu,id,t.html. jak pobrac masowo cala galerie ? Nie chodzi o kradziez, ale jak chce komus pokazac zdjecia itp, to przez strone sie to oglada koszmarnie ....
    Majac je na dysku mozna szybciej wygodniej i przyjemniej ...
    One maja jakos losowo generowane cyfry
    http://d.polskatimes.pl/k/r/1/d6/cb/53f85341e04bf_p.jpg?1408824288
    http://d.polskatimes.pl/k/r/1/fa/9d/53f853584720b_p.jpg?1408824288
    Przykladowe linki
    Pojedynczo daje rade, ale jak jest galeria gdzie jest 100 zdjec i wiecej ... To za duzo czasu to zajmuje

    OdpowiedzUsuń
    Odpowiedzi

    1. wget -O - http://www.dziennikzachodni.pl/artykul/3549373,slaski-zlot-pojazdow-zabytkowych-wystartowal-zdjecia-wideo-trasa-przejazdu,1,48,id,t,sm,sg.html | grep "http://d.polskatimes.pl/k/r/1" | sed s/_k27/_o/g | grep -Eo 'http:[^"]+' | wget -i -

      To ściągnie też trochę niepotrzebnych obrazków ale te nadmiarowe będzie łatwo usunąć z dysku.

      Usuń
  8. Prosze o stworzenie malego forum, gdzie bedziemy dyskutowac o stronach i sposobach pobierania plikow. Mysle, ze Ci co maja wiedze, beda sie nia tez dzielic z innymi.

    OdpowiedzUsuń
    Odpowiedzi
    1. Planuję niebawem coś takiego zrobić. Dam znać jak będzie gotowe ;)

      Usuń
    2. Gdybym miał serwer, albo jakieś miejsce w którym można by bezpiecznie postawić forum to już bym to zrobił.

      Usuń
    3. Jeśli tylko by Pan chciał to mogę udostępnić miejsce na serwerze za darmo.

      Usuń
    4. Polecam to:
      http://www.vgh.pl/install.php

      Usuń
    5. Zrobiłem: http://miniskrypt.vgh.pl

      Usuń
    6. Obawiam się, że na stronce typu vgh.pl to długo nie podziała. Za bardzo nie widzę nawet możliwości jak robić backup tamtej strony, albo w razie potrzeby przeprowadzki wyeksportować dane które się tam znajdą.

      Ktoś zacznie marudzić i właściciel tego serwera nie będzie się zastanawiał tylko stronę usunie aby mieć spokój (nawet jeśli nie będzie tam nic nielegalnego).

      Już w tej chwili słyszałem, że usuwa się wpisy na forach za samo podanie linka do tego bloga (konkretnie na forum.dobreprogramy.pl i spryciarze.pl ) dlatego, że ktoś groził adminom tych stron.
      Wiele to nie dało bo ludzie i tak linkują tylko nie bezpośrednio.
      Ciekawe o ilu przypadkach nie słyszałem?

      Nie każdemu podoba się to, że opisze się ze szczegółami jak działa jego serwis albo da namiary na jakąś funkcjonalność która miała być niewidoczna dla zwykłych ludzi. Na szczęście to nieliczne przypadki, większości to obojętne albo niektórzy nawet się cieszą, że się o nich pisze bo mają w ten sposób darmową reklamę.

      Więc na forum albo musi by duży serwis jakiegoś giganta który ma jasne zasady i nie robi wyjątków dla nikogo albo czyiś prywatny serwer (najlepiej zagraniczny) kto w razie co nie przestraszy się jakiś pogróżek (w stylu wycofania się sponsora czy narobienia jakiś problemów z jego podstawową działalnością).

      Ktoś proponował wykupić własny hosting i utrzymywać go z reklam - nie da rady, za mały ruch. Aby reklamy mogły utrzymać choć najtańszego VPSa musiał by być tam ruch 15 - 20 razy większy niż tutaj.

      @hubaiitv jeśli nadal jesteś zainteresowany to jak mogę się skontaktować?
      Albo napisz do mnie, JID jest w profilu na blogerze a namiary na mój email są w pierwszym wpisie na blogu.

      Usuń
  9. Ja mam trochę inne pytanie. Jak to się stało, że ten blog zyskał taką dość dużą popularność?

    OdpowiedzUsuń
    Odpowiedzi
    1. Wcale nie jest aż tak bardzo popularny, zwykle między 500 a 700 odwiedzających dziennie.

      Ludzie trafiają tu zwykle dlatego, że poszukują rozwiązania jakiegoś konkretnego problemu, wpisują w google zapytanie i dostają odpowiedź.
      A jak już ktoś znajdzie to czego szukał to często poleca innym.

      Usuń
  10. Witam,
    jakim sposobem można ściągnąć ten materiał z tej strony http://www.tvp.pl/katowice/kultura-i-rozrywka/poranek-z-tvp-katowice/wideo/3-kwietnia-2014/14640756

    OdpowiedzUsuń
    Odpowiedzi
    1. Masz na myśli ogólnie jak się ściąga ze strony tvp ?
      http://miniskrypt.blogspot.com/2012/11/wygodny-sposob-na-tvppl-i-te.html albo 3w1

      Czy to, że akurat dzisiaj pojawia się na stronie tvp napis: "Materiał jest obecnie niedostępny. Spróbuj ponownie za chwilę" ?

      Usuń
    2. Dzięki Marek za odpowiedź, sprawdzę to co podałeś. Materiał jest dostępny, może trzeba odświeżyć. Chodzi mi o ściągnięcie właśnie

      Usuń
  11. A jakaś mała instrukcja do tego jak to pobrać? Klikam w te odnośniki ale nic się nie dzieje

    OdpowiedzUsuń
  12. Witam, jest jakaś możliwość zeby zapraszać ludzi z danego fanepage'a do swojej grupy Facebookowej?

    OdpowiedzUsuń
  13. Witam:
    Czy istnieje jakiś sposób na ściągnięcie materiału video ze strony radia Z z programem 7 Dzień Tygodnia czy Gość Radia Zet?? albo ze strony TVP?? przykładowo:
    http://www.tvp.pl/krakow/kronika/wideo/17-ix-2014-godz-2200/16879957

    OdpowiedzUsuń
    Odpowiedzi
    1. Tak istnieje. Skrypt do pobierania ze strony tvp znajduje się na blogu.

      Usuń
    2. A jakiś "sposób" na radio Z ....i ten "siódmy dzień tygodnia" istnieje??

      Usuń
  14. hej nie da się pobrać tego filmu z eskago vod wyskakuje mi taki komunikat :http://pokazywarka.pl/g0rgm9/

    OdpowiedzUsuń
    Odpowiedzi
    1. Tak ma być, to jest właśnie adres strumienia z filmem który można pobrać za pomocą ffmpeg albo hls-fetch

      Usuń
  15. aha ok ale jak pobrać za pomocą tego ffmpeg? może jakiś filmik z instrukcją ?

    OdpowiedzUsuń
  16. Mi to nie działa ;(
    Czy może ktoś napisać jaśniej jak to trzeba zrobić? nie kumam tego..próbowałam kilka razy i mi to nie wychodzi..bardzo proszę o pomoc

    OdpowiedzUsuń
  17. Czy jest możliwość aby zrobił Pan Marek skrypt [zakładke] do serwisu Kinoplex.pl ?

    OdpowiedzUsuń
  18. A może tak łaskawie Pan odpisze

    OdpowiedzUsuń
  19. Marek8 sierpnia 2014 00:10

    Na końcu adresu jest jeszcze zazwyczaj &l=20 albo &l=30 ale poza tym to skrypt tak właśnie działa bierze numer i podstawia go do schematu adresu, no chyba że gdzieś w kodzie strony znajdzie inny adres.

    W kwestii wyboru jakości to ffmpeg informuje, że jakie masz do wyboru jakości. W przypadku tego adresu są 3 pod strumienie z obrazem

    Stream #0.0: Video: h264 (Main), yuv420p, 1280x720 [PAR 1:1 DAR 16:9],
    Stream #0.2: Video: h264 (Constrained Baseline), yuv420p, 852x480 [PAR 640:639 DAR 16:9],
    Stream #0.4: Video: h264 (Constrained Baseline), yuv420p, 640x360 [PAR 1:1 DAR 16:9],

    +jeszcze 2 audio do wyboru.

    Domyślnie ffmpeg pobierze main czyli 1280x720 dodatkowe parametry trzeba podać gdybyś chciał 480p albo 360p



    a jak podac te parametry jak chce np sciagnac stream #0.2 , gdzie i co mam wpisac??

    OdpowiedzUsuń
    Odpowiedzi
    1. można wybrać strumienia za pomocą parametru -map (trzeba wybrać od razu video i audio) na przykład:
      -map 0.2 -map 0.5
      gdzie 0.2 to wybrany strumień video a 0.5 to strumień audio.

      Usuń
    2. dzieki ci dobry czlowieku , o to chodzilo

      Usuń
    3. Dzięki Marek za dobrą robotę, przeglądałem tę eskę, fajnie, że zrobiłeś skrypt, ale tam jest tragedia, filmy jak "wielkodupy pająk" hehe, albo "hity" VHS, to jakiś ponury żart, tak tylko piszę, żebyś wiedział, rób swoje :)

      Usuń
  20. Marku, nie podobała ci się krytyka strony do której zrobiłeś skrypt i dlatego usunąłeś komentarz? Przecież napisałem prawdę, zrób do chomika nowy skrypt to powiem, że jesteś mistrzu., nieładnie usuwać komentarze.

    OdpowiedzUsuń
    Odpowiedzi
    1. Nie usunąłem.
      Nie usuwam komentarzy chyba, że wyraźnie widać, że ktoś się pomylił a potem sam poprawił, albo napisał 2 razy to samo. Poza tym zgadzam się z twoją opinią na temat tego co oferuje eska.

      Czasem anonimowe komentarze nie pojawiają się od razu na stronie - jeśli automat stwierdzi, że coś może być spamem trafia to do odpowiedniej zakładki i czeka, aż to przeczytam i zaznaczę, że nie jest spamem (no chyba, że jest).

      Usuń
  21. OK, rozumiem, przepraszam,.
    ale o tym chomikuj warto pomyśleć, jest tam co brać.

    Powodzenia w twojej pracy.

    OdpowiedzUsuń
  22. Czy wie Pan jak działa IITV premium? dotychczas żaden znany mi sposób nie działa na koncie premium.

    OdpowiedzUsuń
  23. Kolejny skrypt który już nie działa.

    OdpowiedzUsuń
    Odpowiedzi
    1. Działa, przed chwila sprawdzałem.

      Może podaj link do filmu który stwarza problemy.

      Usuń
  24. Obecnie skrypt "vodeska hls" nie działa, nie chwyta np:
    http://www.eskago.pl/vod/serial/4917/sala-operacyjna/1/5/jaskra-i-zacma-podstepne-choroby-oczu
    Wyskakuje tylko okienko z linkiem http://bazavod.eska.pl/playlist.php?i=4917&t=hls&l=30 i przycisk OK i tyle. Nie podejmuje pobierania

    OdpowiedzUsuń
    Odpowiedzi
    1. Przecież link http://bazavod.eska.pl/playlist.php?i=4917&t=hls&l=30 jest poprawny, działa i da się z niego pobrać.

      Usuń
  25. U mnie na FF niestety gdy film już idzie próba go pobrania tym skryptem kończy się komunikatem http://zapodaj.net/6430b7f33a0c5.png.html, bez podjęcia pobierania czegokolwiek. Natomiast ręczne wydłubanie tego linka z komunikatu powoduje tylko pobranie maleńkiego 1KB pliczku playlist4917.m3u8 i na tym koniec.
    Natomiast skrypty stworzone dla tvp działają bez zająknięcia.

    OdpowiedzUsuń
    Odpowiedzi
    1. Ten adres przeklej do ffmpeg, on pobierze film i z automatu poskleja go w całość.

      Pobierając to ręcznie dostał byś masę malutkich plików.

      Usuń
  26. Mam link do filmu z cda. W przeglądarce działa, ale przez ffmpeg już nie (403 Forbidden). Marku, wiesz może o co chodzi?

    Pozdrawiam

    OdpowiedzUsuń
    Odpowiedzi
    1. Prawdopodobnie chodzi o ciasteczka. Tzn przekopiowałeś link a ciasteczka nie.

      Ale już wygodniej zapisać film przeglądarką na dysku a dopiero go w ffmpeg otwierać.

      Usuń
    2. Dotąd tak robiłem. Chciałem to skrócić i już w czasie pobierania zamieniać kontener z mp4 czy flv na mkv.

      Dziękuję.

      Usuń
    3. MAM! Wystarczy zmienić końcówkę linku i działa (w SMPlayer też). Zamieniłem to:
      ...1442705572
      na to:
      ...1842705572

      Usuń
  27. Już nie działa. Nie wiem o co chodzi z tą końcówką linku.

    OdpowiedzUsuń
  28. Moje pytanie może wydać się głupie ale jak korzystać z ffmpeg? ściągnąłem program, zapisał mi się w winrar i co dalej? jak to otworzyć? prosze o odpowiedź bo główkuję nad tym i nic ;)

    OdpowiedzUsuń
  29. Czy ktoś może mi pomóc bo drugi dzień się nad tym męczę. Krok po kroku. Mam ściągnięty strumień "playlist". Ściągnąłem także ffmpeg i tu zaczynają się schody. Otwierając win rar nie mam pojęcia jaki plik uruchomić. W sumie to praktycznie nic mi się nie otwiera, a tyle tego jest. Poratujcie!!! Chciałbym wreszcie zapisać ten film :(

    OdpowiedzUsuń
  30. Bardzo proszę o pomoc. Moze mi ktos podać dokladną komendę do zapisania w ffmpeg do tego filmu? http://www.eskago.pl/vod/serial/11194/milosc-w-rytmie-disco/2/3/milosc-w-rytmie-disco-2-jak-zostalem-ojcem
    Zalezy mi na pobraniu bo w nim występuję. Pomóżcie. Dziękuję!

    OdpowiedzUsuń
    Odpowiedzi
    1. ffmpeg -i "http://bazavod.eska.pl/playlist.php?i=11194&t=hls&l=30" -vcodec copy -acodec copy discoS2E3.mp4

      Usuń
  31. I tu pojawia mi się komunikat: "Nazwa http , t , l nie est rozpoznawalna jako polecenie wewnętrzne lub zewnętrzne, program wykonalny lub plik zasadowy".

    OdpowiedzUsuń
  32. Witam mam Link mam wygenerowany http://bazavod.eska.pl/catch-up-playlist.php?i=23418 i co dalej ? nie rozumiem ffmpeg -i "http://bazavod.eska.pl/catch-up-playlist.php?i=23418" -vcodec copy -acodec copy freshmix.mp4 i gdzie mam to wkleić ??

    OdpowiedzUsuń
  33. A taki materiał ktoś zdoła pobrać?
    http://vod.pl/filmy-dokumentalne/kobieta-o-15-osobowosciach/b15yl#

    OdpowiedzUsuń
    Odpowiedzi
    1. Tak, skrypt 4w1 pobiera to bez problemu.

      Usuń
  34. Cześć, jakiej komendy użyć, żeby wyciągnąć .mkv z dwiema ścieżkami audio i napisami?

    (http://www.eskago.pl/vod/serial/5686)

    OdpowiedzUsuń
    Odpowiedzi
    1. Aby zrzucić do pliku 2 ścieżki audio trzeba na końcu polecenia dodać parametr -newaudio

      Czyli
      ffmpeg -i ADRES -vcodec copy -acodec copy nazwa_pliku.mkv -newaudio
      domyślnie wyciągnie to pierwszy obraz i 2 pierwsze ścieżki audio
      aby wybrać inne należy dla każdego strumienia użyć parametru map z odpowiednimi numerkami

      Można też dograć audio z innego adresu albo z osobnego pliku
      trzeba wtedy podać -i dwa razy

      Niestety nie da rady w jednym poleceniu zrzucić tego od razu z napisami (a przynajmniej ja nie wiem jak to zrobić).

      Trzeba napisy pobrać osobno upewnić się ze to srt (a jak nie to przekonwertować)
      I dodać do pliku mkv za pomocą mkvmerge

      Usuń
    2. Dzięki za odpowiedź, polecenie niestety nie zadziałało.
      Pojawia się informacja:

      Unrecognized option 'newaudio'.
      Error splitting the argument list: Option not found

      Usuń
    3. Najwyraźniej zbyt stara wersja ffmpeg i jeszcze tego nie zna.

      Usuń
    4. Ściągnąłem najnowszą wersję ffmpeg i pojawia się nadal ten sam błąd, co wcześniej.

      Usuń
  35. Ten komentarz został usunięty przez autora.

    OdpowiedzUsuń